#TITLE:Blue Betrayal;
#SUBTITLE:;
#ARTIST:DJ SHARPNEL;
#TITLETRANSLIT:;
#SUBTITLETRANSLIT:;
#ARTISTTRANSLIT:;
#CREDIT:;
#BANNER:Blue Betreyal-bn.jpg;
#BACKGROUND:Blue Beteyal-bg.jpg;
#LYRICSPATH:;
#CDTITLE:cd-yanah.PNG;
#MUSIC:13 BLUE BETREYAL.mp3;
#OFFSET:-0.427;
#SAMPLESTART:207.083;
#SAMPLELENGTH:21.943;
#SELECTABLE:YES;
#BPMS:0.000=175.200;
#STOPS:;
#BGCHANGES:;
// cache tags:
#FIRSTBEAT:0.000;
#LASTBEAT:969.333;
#SONGFILENAME:Songs/nhac/Blue Betrayal/BLUE BETREYAL.sm;
#HASMUSIC:1;
#HASBANNER:1;
#MUSICLENGTH:336.039;
// end cache tags

//---------------dance-single - Steps by Yanah, GFX ----------------
#NOTES:
     dance-single:
     Steps by Yanah, GFX :
     Hard:
     14:
     1.000,1.000,1.000,0.051,1.000,2331.000,1248.000,17.000,0.000,54.000:

1010
0000
0100
0011
0000
0110
0000
0101
0100
1010
0010
0000
,
1001
0000
0010
0101
0000
1100
0000
0101
0001
0110
0010
0000
,
1001
0000
0001
0110
0000
0101
0000
0110
0010
1100
0100
0000
,
0011
0000
0010
0101
0000
1001
0000
0101
0100
1001
0001
0000
,
1100
0000
0100
0110
0000
0110
0000
1100
0100
0110
1000
0000
,
0101
0000
1000
0110
0000
0101
0000
0110
0001
0101
0010
0000
,
1100
0000
1000
0110
0000
0110
0000
1100
0100
0011
0010
0000
,
0101
0000
1000
0011
0000
1001
0000
0110
1000
1001
1000
0000
,
1100
0000
0100
1010
0000
1001
0000
1010
0100
0110
0100
0000
,
1001
0000
0010
1001
0000
1010
0000
1100
1000
1100
0001
0000
,
0110
0000
1000
1100
0000
0101
0000
1001
0100
1100
1000
0000
,
1001
0000
0001
0011
0000
1100
0000
0011
0100
2002
0000
0000
,
3113
0000
1000
1001
0100
0101
0101
1010
0100
0011
1000
0000
,
0110
0000
0001
0110
0001
1010
1100
1010
0010
1100
1000
0000
,
1100
0000
0001
1001
0100
1100
1100
0011
1000
0110
0001
0000
,
1100
0000
1000
1010
0100
1010
0110
0101
1000
1001
1000
0101
,
1010
0000
0100
1010
0010
0110
1001
0011
1000
1010
0010
0000
,
1100
0000
1000
1010
0010
0110
0011
0110
1000
1001
0010
0000
,
0110
0000
1000
1100
0010
1100
1100
1100
0010
0101
0001
0000
,
1100
0000
1000
0210
0010
0321
0100
1000
0100
1031
0010
0010
,
1001
0000
0000
1010
0101
1100
0110
0100
1000
1100
0000
0000
,
1001
0000
0000
0101
1001
0011
1010
0100
0010
0110
0000
0000
,
1010
0000
0000
1001
0110
1010
0110
1000
0010
0110
0000
0000
,
0101
0000
0000
1010
1010
0110
1001
0010
0100
1010
0000
0001
,
1001
0000
0000
1001
1001
1100
1100
0001
1000
0110
0000
0000
,
0011
0000
0000
0011
1001
1100
1001
0100
0100
1010
0000
0000
,
0101
0000
0000
0101
0011
0101
1100
1000
0010
1010
0000
0000
,
1001
0000
1000
2001
0010
3102
0010
1000
0100
1013
0000
0000
,
0110
0100
1000
1010
0100
1000
1100
0100
1001
0011
0100
0011
,
1010
1000
0110
1001
0001
0100
1100
0100
1000
0101
1000
0100
,
1100
0100
1000
0101
1000
0010
1001
1000
0110
0110
1000
0110
,
1001
0010
0011
0110
0100
1000
1001
1000
0100
1010
0010
1100
,
0011
0010
0010
1001
0001
1000
0110
0010
1100
0101
1000
1100
,
0011
0010
1100
1001
0001
0010
0101
0100
1000
1100
0100
1000
,
1000
0010
1000
0010
1000
0001
0101
1000
0100
1100
0010
1000
,
0100
0010
0001
1010
0001
0010
0001
0001
1000
1001
0011
1010
,
0202
0000
0303
0000
,
0000
0000
0000
0000
,
0000
0000
0000
0000
,
1000
0000
0010
1000
0000
0010
1000
0000
0010
0100
0100
0010
,
0001
0000
0100
0100
0000
1000
1000
0000
0001
0010
0000
1000
,
0010
0000
0100
0001
0000
0100
0100
0000
0001
0100
0000
0010
,
0010
0000
0001
0100
0000
0010
1000
0000
0010
0010
0000
1000
,
1000
0000
1000
0100
0000
0001
0100
0000
0010
0010
1000
1000
,
0010
0000
0001
1000
0000
0010
0100
0000
1000
0010
0000
0100
,
0100
0000
1000
0010
0000
0100
1000
0000
1000
0001
0000
1000
,
0010
0000
0001
0100
0000
1000
0001
0000
1000
0010
0000
0010
,
1000
0000
1000
0100
0000
0100
0001
0000
0010
0100
1000
0001
,
0001
0000
0010
1000
0000
0001
0010
0000
0100
1000
0000
0100
,
0100
0000
0100
1000
0000
0010
1000
0000
0100
0100
0000
0001
,
0001
0000
0001
0100
0000
0100
1000
0000
0010
0100
0000
1000
,
1100
0000
1000
0101
0000
0010
1010
0000
0001
0110
0100
0010
,
0101
0000
0000
0101
0000
0000
0110
0000
1100
0101
0000
1100
,
1010
0000
0110
1010
0000
0000
0110
0000
0000
1010
0000
0000
,
0011
0000
0000
1100
0000
0000
0011
0000
0110
1001
0000
0011
,
1010
0000
1010
0101
0000
0000
0101
0000
0000
1001
0000
0000
,
0011
0000
0000
0101
0000
0000
1001
0000
0110
0011
0000
1100
,
0101
0000
1010
1100
0000
0000
0101
0000
0000
1100
0000
0000
,
1100
0000
0000
0101
0000
0000
0101
0000
1010
0101
0000
0011
,
0110
0000
1100
0011
0000
0000
0011
0000
0000
0110
0000
0000
,
1010
0000
0000
0110
0010
0001
0011
0000
0101
1001
0000
1010
,
1100
0000
0110
1100
1000
0100
1001
0000
0000
0110
0000
0000
,
1001
0000
0000
0110
1000
0001
1100
0000
1100
0011
0000
1010
,
1100
0000
1001
0110
0010
1000
1010
0000
0000
0110
0000
0000
,
0101
0000
0000
1100
0100
0010
0110
0000
1010
0011
0000
0101
,
1001
0000
1100
1001
0001
1000
0011
0000
0000
1100
0000
0000
,
0011
0000
0000
1100
0001
0010
1001
0000
1001
0110
0000
0101
,
1010
0100
0001
0101
0100
1000
1100
0010
0001
0011
0010
0100
,
0110
0100
0100
0101
0001
0001
0011
0010
0010
1010
1000
1000
,
1010
0010
0010
0110
0100
0100
0101
0001
0001
0011
0010
0010
,
0011
0001
0001
1001
1000
1000
1100
0100
0100
0101
0001
0001
,
0101
0100
0100
0110
0010
0010
1010
1000
1000
1100
0100
0100
,
0110
0110
0110
0101
0101
0101
0011
0011
0011
1010
1010
1010
,
1010
1010
1010
0110
0110
0110
0101
0101
0101
0011
0011
0011
,
0011
0011
0011
1001
1001
1001
1100
1100
1100
0101
0101
0101
,
0101
0101
0101
0110
0110
0110
1010
1010
1010
1100
1100
1100
,
2002
0000
3003
0000
,
0000
0000
0000
0000
0000
0000
0000
0000
0000
1100
0011
0110
,
1001
0100
0010
0101
0100
0100
1010
1000
0010
1100
1000
0101
,
0011
0010
0100
1010
1000
0010
1100
0100
0010
0101
1000
1010
,
0011
1000
0001
0110
0100
0100
0101
1000
1000
0110
0100
0101
,
1010
0100
0001
1010
1000
1000
0110
1000
1000
0101
1001
0110
,
1100
1000
1000
0110
1000
0001
0101
0010
0100
1001
0100
1100
,
1001
1000
0100
1010
1000
0010
0101
0100
1000
0101
1000
0110
,
1100
1000
0100
1100
1000
1000
1001
0100
0010
1100
0100
1100
,
1100
0100
0010
0110
0010
0001
0011
0001
0100
0101
0100
0010
,
0110
0010
1000
0110
0011
1100
1010
0100
0010
1100
1000
0101
,
1010
0100
1000
1100
0110
1100
1001
1000
1000
1100
1000
1100
,
0011
0100
0010
1001
0011
1100
1001
1000
1000
1001
1000
0011
,
1010
0001
0010
0011
1010
1100
0110
0100
0100
0011
1100
1010
,
0101
0010
0100
0101
0110
1100
0011
1000
1000
1100
0100
1001
,
0110
0010
0001
1100
0110
1100
0011
0100
0001
1001
1000
0011
,
0101
0001
0010
1001
1010
1100
0110
1000
0100
0101
0010
1100
,
0110
1000
1000
1001
1000
0010
1010
0001
0100
1010
0001
0100
,
0101
0100
1000
0110
0100
1000
0110
1000
0011
0101
1000
0110
,
1001
1000
0110
1100
0001
0100
1001
0100
1000
1110
0100
0100
,
0101
0001
0100
1001
1000
1000
1100
0100
1010
1100
0100
0011
,
0110
1000
1001
1010
1000
0100
0110
0010
1000
1101
0001
0100
,
0110
0100
0100
0101
0100
0100
1100
0100
1100
0011
1000
1100
,
1100
0010
0101
0101
0010
1000
1100
0100
0010
1110
0010
0001
,
0110
0001
0100
1100
1000
1000
0110
0010
1100
0101
0010
0110
,
1011
0001
1010
1101
0100
1000
1101
0001
1000
0111
0001
0100
,
0011
0001
1000
0110
0010
0100
0110
1000
1001
0011
0100
1100
,
1100
1000
1001
1010
1000
0001
0110
0001
0010
1110
0010
0010
,
1010
1000
0010
0110
1000
0001
1010
0010
1100
0101
1000
1010
,
1100
1000
1100
1001
0100
0001
1001
1000
1000
1110
0010
0001
,
1100
1000
1000
1010
0001
0001
1001
0010
0101
0110
0100
0011
,
1100
0100
0110
0101
0100
0100
0101
1000
1000
1101
1000
0100
,
1001
0100
0001
1010
0100
0001
1001
0100
1100
0011
1000
1010
,
0111
0100
1100
1110
0010
1000
0111
1000
0100
1101
1000
1000
,
1010
0000
0100
1100
0000
0100
0110
0000
1100
1010
0000
0101
,
1010
0000
0101
0101
0000
0010
0101
0000
1000
0011
0000
0100
,
1001
0000
1000
1100
0000
0010
1100
0000
0101
1010
0000
1100
,
1100
0000
0101
0101
0000
1000
1010
0000
0010
0110
1100
0011
,
1100
0000
0100
1001
0000
0001
1001
0000
1001
0110
0000
1010
,
1010
0000
0110
1100
0000
0100
0110
0000
1000
0110
0000
0010
,
1100
0000
1000
1001
0000
1000
1001
0000
0101
1001
0000
1100
,
1100
0000
0101
1100
0000
1000
0110
0000
1000
1001
0110
1010
,
1110
0000
0100
0110
0000
1000
1001
0000
1100
1010
0000
1010
,
1010
0000
0101
1100
0000
1000
0110
0000
1000
1010
0000
0010
,
0110
0000
0100
0011
0000
0100
0110
0000
0110
1100
0000
0011
,
1001
0000
0011
1010
0000
0001
1100
0000
1000
1100
0110
1010
,
1100
0000
1000
1001
0000
0010
1010
0000
1100
0110
0000
1010
,
0110
0000
1100
0011
0000
1000
1010
0000
1000
1010
0000
1000
,
1010
0000
0010
0101
0000
1000
1100
0000
0011
1001
0000
1001
,
1100
0000
1010
1010
0000
0100
0110
0000
1000
1010
1100
0011
,
1101
0000
0010
1000
0000
0100
1101
0000
0001
1000
0000
0100
,
1110
0000
1000
0100
0000
1000
1110
0000
0010
1000
0000
1000
,
1101
0000
1000
0100
0000
1000
1101
0000
1000
0100
0000
1000
,
1101
0000
0100
0001
0000
1000
1101
0000
1000
0010
0010
0100
,
1110
0000
0100
0010
0000
1000
0111
0000
1000
1000
0000
0100
,
1101
0000
0100
0100
0000
0001
1011
0000
1000
0100
0000
1000
,
1011
0000
0100
1000
0000
0100
0111
0000
0100
0010
0000
0010
,
1110
0000
1000
1000
0000
1000
1101
0000
0100
1000
1000
0010
,
1011
0000
1000
0100
0000
1000
1110
0000
0001
0100
0000
0010
,
1110
0100
1000
1000
0100
1000
1011
0100
0001
1000
0100
1000
,
1011
0001
0100
1000
0001
1000
1011
0100
0010
0001
1000
0001
,
1110
0100
1000
0100
1000
0100
0111
1000
1000
0010
0010
1000
,
1011
0100
0010
1000
0010
0010
1101
0100
0001
1000
1000
1000
,
1101
0010
0001
0001
0010
1000
1101
0001
1000
0100
0010
1000
,
0111
0010
0100
0100
0001
0100
1101
0100
0001
1000
1000
0010
,
1100
1100
1100
0110
0110
0110
0101
0101
0101
1001
1001
1001
,
0220
0330
0000
0000
,
0000
0000
0000
0000
,
1010
0000
0000
0110
0000
0000
0101
0110
1100
0110
1001
1100
,
1010
0000
1010
1010
0000
1010
1100
0000
1100
0011
0000
0110
,
0101
0000
0101
0101
0000
0101
1100
0000
1100
0110
0000
1001
,
1100
0000
1100
1100
0000
1100
0101
0000
0101
1010
0000
1001
,
0011
0000
0011
0011
0000
0011
0101
0000
0101
1001
0000
0110
,
0101
0000
0101
0101
0000
0101
0011
0000
0011
1100
0000
0110
,
1010
0000
1010
1010
0000
1010
0011
0000
0011
0110
0000
1001
,
0011
0000
0011
0011
0000
0011
1010
0000
1010
0101
0000
1001
,
1100
0000
1100
1100
0000
1100
1010
0000
1010
1001
0000
0110
,
0011
0000
0011
0011
0000
0011
0101
0000
0101
0011
0000
0011
,
1100
0000
1100
1100
0000
1100
0101
0000
0101
0011
0000
1100
,
1010
0000
1010
1010
0000
1010
0011
0000
0011
1010
0000
1010
,
0101
0000
0101
0101
0000
0101
0011
0000
0011
1010
0000
0101
,
1100
0000
1100
1100
0000
1100
1010
0000
1010
1100
0000
1100
,
0011
0000
0011
0011
0000
0011
1010
0000
1010
1100
0000
0011
,
0101
0000
0101
0101
0000
0101
1100
0000
1100
0101
0000
0101
,
1010
0000
1010
1010
0000
1010
1100
0000
1100
0101
0000
1010
,
2202
0000
0000
0000
3303
0000
0000
0000
0000
0101
1010
0110
,
1100
0100
0001
0011
0001
0010
1010
0100
0100
1100
0001
0010
,
1100
0010
1000
1010
1000
0010
1001
0001
0001
0101
0100
1000
,
1100
0010
1000
0110
0100
1000
1010
1000
0010
0101
1000
0100
,
0101
1000
0100
0101
0100
0010
1100
0100
1000
1001
0010
0100
,
0011
1000
0100
1010
0010
0100
1100
1000
0100
1010
0010
0100
,
0101
0100
0100
0110
0100
1000
0011
0100
0010
0110
0010
1000
,
1010
0100
0001
1100
0001
0100
0101
0010
0010
0011
1000
0010
,
1001
0100
1000
1010
0001
0100
1100
0010
1000
1010
0110
1001
,
1001
1000
0100
1100
0010
0100
1010
0100
0001
0101
0100
1000
,
0101
0100
1000
1100
0010
0010
1010
1000
1000
1001
1000
1000
,
1100
0100
0001
0101
1000
0010
1100
0001
1000
1100
0100
0001
,
1001
1000
0001
0011
0010
1000
0110
0001
0010
0110
0010
0100
,
1010
1000
0001
0110
0010
1000
1100
0100
1000
1100
0100
0001
,
0110
0010
0001
0011
1000
0100
1001
0001
0010
0101
0100
1000
,
1100
0001
0100
1001
0010
0010
1100
1000
0010
1100
0010
0010
,
1100
0010
0100
0110
0010
0010
0101
0100
0100
1100
0011
0110
,
1001
1000
0001
1001
1000
0001
1001
1000
0001
1001
1000
0001
,
0110
0010
0100
0110
0010
0100
0110
0010
0100
0110
0010
0100
,
0101
0001
0100
0101
0001
0100
0101
0001
0100
0101
0001
0100
,
1010
1000
0010
1010
1000
0010
1010
1000
0010
1010
1000
0010
,
1100
1000
0100
1100
1000
0100
1100
1000
0100
1100
1000
0100
,
0011
0001
0010
0011
0001
0010
0011
0001
0010
0011
0001
0010
,
0110
0100
0010
0110
0100
0110
0110
0100
0010
0110
0100
0010
,
1001
0001
1000
1001
0001
1000
1001
0001
1000
1001
0101
1010
,
0110
1000
0001
0110
1000
0001
0110
1000
0001
0110
1000
0001
,
1001
0100
0010
1001
0100
0010
1001
0100
0010
1101
0000
0000
,
0011
0100
1000
0011
0100
1000
0011
0100
1000
0011
0100
1000
,
1100
0010
0001
1100
0010
0001
1100
0010
0001
1110
0000
0000
,
0101
0000
1010
0101
0000
1010
0101
0000
1010
0101
0000
1010
,
1010
1010
1010
1011
,
1001
0010
0100
1001
0010
0100
1001
0010
0100
1001
0010
0100
,
0101
0000
0101
0101
0000
0101
0011
0000
0011
0110
0000
1100
,
1100
0100
1001
1001
0010
1100
1010
0100
0011
0011
1000
0101
,
0101
1000
0101
0110
0010
0011
0101
1000
1010
0101
1000
0110
,
0110
1000
1001
1001
0100
0101
1010
0100
1010
0110
0001
1001
,
1001
0001
0011
0011
0100
1100
1001
0010
1100
1001
1000
0110
,
0101
1000
1010
1100
0100
0101
0101
0010
1010
1001
1000
1010
,
1100
1000
0101
0011
1000
1100
1001
0100
1100
1001
0100
0011
,
0011
0100
0101
1001
0100
0101
0101
0001
1010
0011
1000
1100
,
0011
1000
1100
0110
0010
0101
1100
0010
0101
1010
0100
1010
,
1100
0100
0101
1100
0100
0110
1010
0100
1010
1010
0010
1001
,
0101
0100
1001
0011
1000
1010
0110
0100
0011
0011
0100
1100
,
1001
1000
0110
0101
0100
1001
1100
0010
1100
0011
1000
1100
,
1100
0001
1100
1010
0100
0110
1100
0100
0101
1100
0100
0110
,
1001
1000
1001
0011
1000
0110
1100
0100
0011
1010
0100
1010
,
1010
0100
1100
1100
0100
1010
1010
1000
1010
1100
0001
0101
,
1010
1000
0110
1001
0010
0110
1100
0100
0110
0110
0100
0110
,
0110
0001
0110
1001
0100
1010
1010
0100
0110
1100
1000
0101
,
0110
0000
0100
0101
0000
0001
0011
0000
0010
1010
0000
1000
,
1001
0000
0001
0101
0000
0100
0110
0000
0010
1010
0000
1000
,
1100
0000
0100
0110
0000
0010
1010
0000
1000
1001
0000
0001
,
0011
0000
0010
0110
0000
0100
0101
0000
0001
1001
0000
1000
,
1100
0000
0100
0110
0000
0010
0011
0000
0001
1001
0000
1000
,
1010
0000
0010
0110
0000
0100
1100
0000
1000
1010
0000
0010
,
0110
0000
0100
0101
0000
0001
0011
0000
0010
1010
0000
1000
,
0001
0000
0001
0010
0000
0010
0100
0000
0100
1000
0000
1000
,
1001
0000
1001
0011
0010
0011
1010
0000
1010
1100
0000
1100
,
0110
0000
0110
0011
0001
0011
1001
0000
1001
1100
0000
1100
,
0101
0000
0101
1001
1000
1001
1100
0000
1100
0110
0000
0110
,
1010
0000
1010
1001
0001
1001
0011
0000
0011
0110
0000
0110
,
0101
0000
0101
1001
1000
1001
1010
0000
1010
0110
0000
0110
,
1100
0000
1100
1001
0001
1001
0101
0000
0101
1100
0000
1100
,
1001
0000
1001
0011
0010
0011
1010
0000
1010
1100
0000
1100
,
0010
0000
0010
1000
1000
1000
0001
0000
0001
0100
0000
0100
,
0110
0000
0010
1001
1000
1001
1010
0101
1000
0101
0000
0100
,
0011
0000
0100
1001
0100
0110
0110
0101
0001
0110
0000
0001
,
0110
0000
1000
1100
0100
1010
0110
1001
1000
0011
0000
0100
,
1010
0000
0010
1100
0010
1100
0110
0101
1000
1010
0000
1000
,
1010
0000
0010
1100
1000
1001
1100
0101
1000
1001
0000
1000
,
1010
0000
1000
1010
0100
1100
0110
1001
0100
1010
0000
1000
,
0011
0000
0010
0110
1000
0110
1001
0110
0100
1100
0000
1000
,
1010
0000
0000
0101
0000
1001
0000
1100
0000
0110
0000
0000
,
1010
0010
0010
0011
0001
0001
0101
0100
0100
1100
1000
1000
,
1010
0010
0010
0110
0100
0100
0101
0001
0001
0011
0010
0010
,
0110
0100
0100
1100
1000
1000
1001
0001
0001
0101
0100
0100
,
0110
0010
0010
0011
0001
0001
1001
1000
1000
1100
0100
0100
,
1100
1000
1000
1001
0001
0001
0011
0010
0010
1010
1000
1000
,
1001
0001
0001
0101
0100
0100
0110
0010
0010
0011
0001
0001
,
1001
1000
1000
1010
0010
0010
0110
0100
0100
0101
0001
0001
,
0100
0000
0000
0100
0000
0100
0000
0100
0000
1100
0011
0110
,
2002
0000
0000
0000
3003
0000
0000
0000
0000
0000
0000
0000
;
